Il giardino dei cosacchi | Insidious La Ășltima llave (2017) | Pedag VIVA MINI Insole beige QrF4pskB

Vishwaroopam 2 (2018) Tamil Pre DVDRip 720p AVC MP3 500MB Origina...

seeders: 1
leechers: 1
updated:
Added by MMRHD in Other


[ LIMITED VPN OFFER ]
strongly advises you to use NordVPN while downloading torrents.
NordVPN is the safest VPN on the market, and the fastest VPN as well.
No IP Log is saved using NordVPN, avoid other VPN providers and choose the safest one.
Click here and buy NordVPN it's on rebates today!
We were able to verify your IP: 79.110.18.113, country: Ukraine.
If we can do that, others can too, protect your privacy with NordVPN.
is trying the best for you!
[ LIMITED VPN OFFER ]


Description

Vishwaroopam 2 (2018) Tamil Pre DVDRip - 720p - AVC - MP3 - 500MB - Original Audio [MMRHD]  

 


Quote:http://www.imdb.com/title/tt2677064/ 
Movie Name: Vishwaroopam 2 (2018)
Genres:  Action, Thriller
Director:  Kamal Haasan 
Writers:  Kamal Haasan, Atul Tiwari (hindi dialogue)
Stars:  Kamal Haasan, Rahul Bose, Shekhar Kapur 
Language: Tamil
Subtitle: No
Encoder: MMRHD 
 


 

 

 



General  
Complete name : Vishwaroopam 2 (2018)[Tamil Pre DVDRip - 720p - AVC - MP3 - 500MB - Original Audio].mkv
Format : Matroska
File size : 509 MiB
Duration : 2 h 5 min
Overall bit rate : 567 kb/s 


Video  
ID : 1
Format : AVC
Duration : 2 h 5 min
Bit rate : 500 kb/s
Width : 1 280 pixels
Height : 544 pixels
Display aspect ratio : 2.35:1
Stream size : 441 MiB (87%) 


Audio  
ID : 2
Format : AC-3
Duration : 2 h 5 min
Bit rate mode : Constant
Bit rate: 64.0 kb/s
Channel(s) : 2 channels
Channel positions : Front: L R
Stream size : 57.4 MiB (11%) 

 


Vishwaroopam (2013) Hindi dubbed 720p AVC AC3 ESub[MMRHD]  

Sharing Widget


Download torrent
Size: 510.0 MB
seeders:1
leechers:1
Vishwaroopam 2 (2018) Tamil Pre DVDRip 720p AVC MP3 500MB Origina... - (534773760 Bytes)



To share this torrent use the code below and insert it into comments, status messages, forum posts or your signature.

Torrent: Vishwaroopam 2 (2018) Tamil Pre DVDRip 720p AVC MP3 500MB Origina...

Trackers

tracker name
udp://tracker.openbittorrent.com:80/announce
udp://tracker.opentrackr.org:1337/announce
udp://inferno.demonoid.pw:3391/announce
udp://tracker.coppersurfer.tk:6969/announce
udp://tracker.leechers-paradise.org:6969/announce
udp://tracker.zer0day.to:1337/announce
http://tracker.opentrackr.org:1337/announce
udp://p4p.arenabg.com:1337/announce
http://p4p.arenabg.com:1337/announce
udp://9.rarbg.com:2710/announce
http://explodie.org:6969/announce
udp://explodie.org:6969/announce
http://tracker.dler.org:6969/announce
udp://tracker.internetwarriors.net:1337/announce
udp://tracker.zer0day.to:1337/announce
udp://tracker.leechers-paradise.org:6969/announce
udp://coppersurfer.tk:6969/announce
”Torrent compatible trackers list

Locations

name
KickassTorrents
Torrent hash: 0C64B8359EB011BDC3A39C934B20D36B702F49AE

[ LIMITED VPN OFFER ]
strongly advises you to use NordVPN while downloading torrents.
NordVPN is the safest VPN on the market, and the fastest VPN as well.
No IP Log is saved using NordVPN, avoid other VPN providers and choose the safest one.
Click here and buy NordVPN it's on rebates today!
We were able to verify your IP: 79.110.18.113 and country: Ukraine.
If we can do that, others can too, protect your privacy with NordVPN.
is trying the best for you!
[ LIMITED VPN OFFER ]

All Comments

*comments box temporarily disabled*
Report a bug