Drive Link | Doris Day | Nat Geo Wild: Невероятная Африка. Разноцветный континент / Extraordinary Africa. The Continent of Colors (2014) HDTVRip-AVC | P1

The Meg (2018) 720p HDCAM x264 AAC [Dual Audio] [Hindi(Cam)+ Engl...

seeders: 20
leechers: 44
updated:
Added by CrazzyBoy in Other


[ LIMITED VPN OFFER ]
strongly advises you to use NordVPN while downloading torrents.
NordVPN is the safest VPN on the market, and the fastest VPN as well.
No IP Log is saved using NordVPN, avoid other VPN providers and choose the safest one.
Click here and buy NordVPN it's on rebates today!
We were able to verify your IP: 79.110.18.233, country: Ukraine.
If we can do that, others can too, protect your privacy with NordVPN.
is trying the best for you!
[ LIMITED VPN OFFER ]


Description

Quote: 
The Meg (2018) 720p HDCAM x264 AAC [Dual Audio] [Hindi(Cam)+ English] 1GB [CraZzyBoY]
 
Seed Will Be Slow Visit Our Site For Instant Download
Visit & Support www.MoviezAddiction.website 
Buy Reliable & Cheap Dedicated/VPS Servers 
Visit For Cheapest Hosting http://semayra.com/ 
 
  
 
 
The Meg (2018) 720p HDCAM x264 AAC [Dual Audio] [Hindi(Cam)+ English] 1GB [CraZzyBoY]

 


Take It Or Leave It 
Like Our Work Just leave Only 1 Valuable Comment
Keep Visit and Support http://moviezaddiction.website 

 
General

Format : Matroska
Format version : Version 4 / Version 2
File size : 1.02 GiB
Duration : 1 h 42 min
Overall bit rate : 1 420 kb/s
Movie name : www.MoviezAddiction.website
Encoded date : UTC 2018-08-10 16:20:17
Writing application : mkvmerge v12.0.0 ('Trust / Lust') 64bit
Writing library : libebml v1.3.4 + libmatroska v1.4.5
Cover : Yes
Attachments : Cover.jpg

Video
ID : 1
Format : AVC
Format/Info : Advanced Video Codec
Format profile : [email protected] 
Format settings : CABAC / 5 Ref Frames
Format settings, CABAC : Yes
Format settings, ReFrames : 5 frames
Codec ID : V_MPEG4/ISO/AVC
Duration : 1 h 42 min
Bit rate : 1 152 kb/s
Width : 1 280 pixels
Height : 536 pixels
Display aspect ratio : 2.40:1
Frame rate mode : Constant
Frame rate : 29.970 (30000/1001) FPS
Color space : YUV
Chroma subsampling : 4:2:0
Bit depth : 8 bits
Scan type : Progressive
Bits/(Pixel*Frame) : 0.056
Stream size : 853 MiB (82%)
Title : www.MoviezAddiction.website
Writing library : x264 core 148 r2795 aaa9aa8
Default : Yes
Forced : No

Audio #1
ID : 2
Format : AAC
Format/Info : Advanced Audio Codec
Format profile : LC
Codec ID : A_AAC-2
Duration : 1 h 42 min
Bit rate : 128 kb/s
Channel(s) : 2 channels
Channel positions : Front: L R
Sampling rate : 48.0 kHz
Frame rate : 46.875 FPS (1024 SPF)
Compression mode : Lossy
Delay relative to video : -21 ms
Stream size : 94.2 MiB (9%)
Title : www.MoviezAddiction.website
Language : Hindi
Default : Yes
Forced : Yes

Audio #2
ID : 3
Format : AAC
Format/Info : Advanced Audio Codec
Format profile : LC
Codec ID : A_AAC-2
Duration : 1 h 42 min
Bit rate : 128 kb/s
Channel(s) : 2 channels
Channel positions : Front: L R
Sampling rate : 48.0 kHz
Frame rate : 46.875 FPS (1024 SPF)
Compression mode : Lossy
Delay relative to video : -21 ms
Stream size : 94.0 MiB (9%)
Title : www.MoviezAddiction.website
Language : English
Default : No
Forced : No



 

Five years ago, expert sea diver and Naval Captain Jonas Taylor encountered an unknown danger in the unexplored recesses of the Mariana Trench that forced him to abort his mission and abandon half his crew. Though the tragic incident earned him a dishonorable discharge, what ultimately cost him his career, his marriage and any semblance of honor was his unsupported and incredulous claims of what caused it - an attack on his vessel by a mammoth, 70-foot sea creature, believed to be extinct for more than a million years. But when a submersible lies sunk and disabled at the bottom of the ocean - carrying his ex-wife among the team onboard - he is the one who gets the call. Whether a shot at redemption or a suicide mission, Jonas must confront his fears and risk his own life and the lives of everyone trapped below on a single question: Could the Carcharodon Megalodon - the largest marine predator that ever existed - still be alive ... and on the hunt?
 
 
 
 
 
 

 
 
  

Sharing Widget


Download torrent
Size: 1.0 GB
seeders:20
leechers:44
The Meg (2018) 720p HDCAM x264 AAC [Dual Audio] [Hindi(Cam)+ Engl... - (1073741824 Bytes)



To share this torrent use the code below and insert it into comments, status messages, forum posts or your signature.

Torrent: The Meg (2018) 720p HDCAM x264 AAC [Dual Audio] [Hindi(Cam)+ Engl...

Trackers

tracker name
udp://tracker.pirateparty.gr:6969/announce
udp://tracker.zer0day.to:1337/announce
udp://tracker.pirateparty.gr:6969/announce
udp://tracker.tiny-vps.com:6969/announce
udp://tracker.opentrackr.org:1337/announce
udp://tracker.tiny-vps.com:6969/announce
udp://public.popcorn-tracker.org:6969/announce
udp://tracker.torrent.eu.org:451/announce
udp://tracker.pirateparty.gr:6969/announce
udp://tracker.torrent.eu.org:451/announce
udp://public.popcorn-tracker.org:6969/announce
udp://9.rarbg.com:2710/announce
udp://9.rarbg.me:2710/announce
udp://tracker.zer0day.to:1337/announce
udp://tracker.zer0day.to:1337/announce
udp://tracker.leechers-paradise.org:6969/announce
udp://coppersurfer.tk:6969/announce
µTorrent compatible trackers list

Locations

name
KickassTorrents
Torrent hash: EB7B3745A8CF26EF86709045EB97DF2B73C45F96

[ LIMITED VPN OFFER ]
strongly advises you to use NordVPN while downloading torrents.
NordVPN is the safest VPN on the market, and the fastest VPN as well.
No IP Log is saved using NordVPN, avoid other VPN providers and choose the safest one.
Click here and buy NordVPN it's on rebates today!
We were able to verify your IP: 79.110.18.233 and country: Ukraine.
If we can do that, others can too, protect your privacy with NordVPN.
is trying the best for you!
[ LIMITED VPN OFFER ]

All Comments

*comments box temporarily disabled*
Report a bug