Mai 2013 | Permalink | Matthew Modine

Parmanu - The Story Of Pokhran (2018) Untouched 1080p WEB-DL Hind...

seeders: 199
leechers: 92
updated:
Added by ImKing in Other


! NEW VPN OFFER - GET READY TO DOWNLOAD TODAY !
strongly advises you to use NordVPN while downloading torrents.
NordVPN is the safest VPN on the market, and the fastest VPN as well.
No IP Log is saved using NordVPN, avoid other VPN providers and choose the safest one.
Click here and buy NordVPN it's on rebates today!
We were able to verify your IP: 95.181.182.242, country: Ukraine and you are near by: Kiev.
If we can do that, others can too, protect your privacy with NordVPN.
is trying the best for you!
! NEW VPN OFFER - GET READY TO DOWNLOAD TODAY !


Description

Parmanu - The Story Of Pokhran (2018) Untouched 1080p WEB-DL Hindi x264 AAC ~ KartiKing [EXCLUSIVE]  

 

 

 

INFO :-

Special Thanks To ~ Punisher

http://nfomation.net/download/1532425362/p_KartiKing.txt 

Mediainfo :-

Parmanu - The Story Of Pokhran (2018) Untouched 1080p WEB-DL x264 AAC Hindi KartiKing.mkv
Format                      : Matroska
Format version              : Version 4 / Version 2
File size                   : 2.65 GiB
Duration                    : 2 h 4 min
Overall bit rate            : 3 052 kb/s

Video
ID                          : 1
Format                      : AVC
Format/Info                 : Advanced Video Codec
Format profile              : [email protected] 
Format settings             : CABAC / 4 Ref Frames
Format settings, CABAC      : Yes
Format settings, ReFrames   : 4 frames
Codec ID                    : V_MPEG4/ISO/AVC
Duration                    : 2 h 4 min
Bit rate                    : 3 000 kb/s
Width                       : 1 920 pixels
Height                      : 1 080 pixels
Display aspect ratio        : 16:9
Frame rate mode             : Variable
Frame rate                  : 24.819 FPS
Color space                 : YUV
Chroma subsampling          : 4:2:0
Bit depth                   : 8 bits
Scan type                   : Progressive
Bits/(Pixel*Frame)          : 0.058
Stream size                 : 2.59 GiB (98%)
Default                     : Yes
Forced                      : No

Audio
ID                          : 2
Format                      : AAC
Format/Info                 : Advanced Audio Codec
Format profile              : LC
Codec ID                    : A_AAC-2
Duration                    : 2 h 4 min
Bit rate                    : 64.3 kb/s
Channel(s)                  : 2 channels
Channel positions           : Front: L R
Sampling rate               : 48.0 kHz
Frame rate                  : 46.875 FPS (1024 SPF)
Compression mode            : Lossy
Delay relative to video     : -80 ms
Stream size                 : 57.2 MiB (2%)
Default                     : Yes
Forced                      : No


 

SCREENSHOTS :-
  

 
 
 
 

KartiKing
  

 
 


Sharing Widget


Download torrent
Size: 2.7 GB
seeders:199
leechers:92
Parmanu - The Story Of Pokhran (2018) Untouched 1080p WEB-DL Hind... - (2899102924 Bytes)



To share this torrent use the code below and insert it into comments, status messages, forum posts or your signature.

Torrent: Parmanu - The Story Of Pokhran (2018) Untouched 1080p WEB-DL Hind...

Trackers

tracker name
udp://tracker.coppersurfer.tk:6969/announce
udp://tracker.open-internet.nl:6969/announce
udp://exodus.desync.com:6969/announce
udp://tracker.opentrackr.org:1337/announce
udp://tracker.internetwarriors.net:1337/announce
udp://9.rarbg.to:2710/announce
udp://public.popcorn-tracker.org:6969/announce
udp://tracker.vanitycore.co:6969/announce
udp://mgtracker.org:6969/announce
udp://tracker.tiny-vps.com:6969/announce
udp://tracker.cypherpunks.ru:6969/announce
udp://tracker.torrent.eu.org:451/announce
udp://thetracker.org:80/announce
udp://retracker.lanta-net.ru:2710/announce
udp://tracker.zer0day.to:1337/announce
udp://tracker.leechers-paradise.org:6969/announce
udp://coppersurfer.tk:6969/announce
ĀµTorrent compatible trackers list

Locations

name
KickassTorrents
Torrent hash: F1C515845A4A0F5C2F6970A94475845581F7DD7E

! NEW VPN OFFER - GET READY TO DOWNLOAD TODAY !
strongly advises you to use NordVPN while downloading torrents.
NordVPN is the safest VPN on the market, and the fastest VPN as well.
No IP Log is saved using NordVPN, avoid other VPN providers and choose the safest one.
Click here and buy NordVPN it's on rebates today!
We were able to verify your IP: 95.181.182.242, country: Ukraine and you are near by: Kiev.
If we can do that, others can too, protect your privacy with NordVPN.
is trying the best for you!
! NEW VPN OFFER - GET READY TO DOWNLOAD TODAY !

All Comments

*comments box temporarily disabled*
Report a bug