Social school drama Wife 6 who became a mistress of a neighbor 6 Yui Hatano | Mobile (27) | RocketMan 1997 BluRay 720p YTS AM

Mission Impossible 6 - Fallout (2018) English 720p HDCAM Rip x264...

seeders: 245
leechers: 38
updated:
Added by RockerS in Other


! NEW VPN OFFER - GET READY TO DOWNLOAD TODAY !
strongly advises you to use NordVPN while downloading torrents.
NordVPN is the safest VPN on the market, and the fastest VPN as well.
No IP Log is saved using NordVPN, avoid other VPN providers and choose the safest one.
Click here and buy NordVPN it's on rebates today!
We were able to verify your IP: 79.110.19.120, country: Ukraine.
If we can do that, others can too, protect your privacy with NordVPN.
is trying the best for you!
! NEW VPN OFFER - GET READY TO DOWNLOAD TODAY !


Description

Mission Impossible 6 - Fallout (2018) English 720p HDCAM Rip x264 1.3GB - Team TR  
 

Source : 1xBet

 

Media Info  
General 
Format : Matroska 
Format version : Version 4 / Version 2 
File size : 1.30 GiB 
Duration : 2 h 17 min 
Overall bit rate : 1 358 kb/s 

Video 
ID : 1 
Format : AVC 
Format/Info : Advanced Video Codec 
Format profile : [email protected] 
Format settings : CABAC / 4 Ref Frames 
Format settings, CABAC : Yes 
Format settings, RefFrames : 4 frames 
Codec ID : V_MPEG4/ISO/AVC 
Duration : 2 h 17 min 
Bit rate : 1 200 kb/s 
Width : 1 270 pixels 
Height : 606 pixels 
Display aspect ratio : 2.096 
Frame rate mode : Constant 
Frame rate : 29.970 (30000/1001) FPS 
Color space : YUV 
Chroma subsampling : 4:2:0 
Bit depth : 8 bits 
Scan type : Progressive 
Bits/(Pixel*Frame) : 0.052 
Stream size : 1.15 GiB (88%) 
Writing library : x264 core 155 r2901 7d0ff22 
Default : Yes 
Forced : No 

Audio 
ID : 2 
Format : AAC 
Format/Info : Advanced Audio Codec 
Format profile : LC 
Codec ID : A_AAC-2 
Duration : 2 h 17 min 
Bit rate : 161 kb/s 
Channel(s) : 2 channels 
Channel positions : Front: L R 
Sampling rate : 48.0 kHz 
Frame rate : 46.875 FPS (1024 SPF) 
Compression mode : Lossy 
Delay relative to video : -21 ms 
Stream size : 158 MiB (12%) 
Language : English 
Default : Yes 
Forced : No 

Sharing Widget


Download torrent
Size: 1.3 GB
seeders:245
leechers:38
Mission Impossible 6 - Fallout (2018) English 720p HDCAM Rip x264... - (1395864371 Bytes)



To share this torrent use the code below and insert it into comments, status messages, forum posts or your signature.

Torrent: Mission Impossible 6 - Fallout (2018) English 720p HDCAM Rip x264...

Trackers

tracker name
udp://tracker.openbittorrent.com:80/announce
udp://explodie.org:6969/announce
udp://zer0day.ch:1337/announce
udp://tracker.leechers-paradise.org:6969/announce
udp://tracker.coppersurfer.tk:6969/announce
udp://tracker.opentrackr.org:1337/announce
udp://tracker.zer0day.to:1337/announce
udp://tracker.leechers-paradise.org:6969/announce
udp://coppersurfer.tk:6969/announce
ĀµTorrent compatible trackers list

Locations

name
KickassTorrents
Torrent hash: 6052A77EC92E594840D2A1EA68E3131C786DB09A

! NEW VPN OFFER - GET READY TO DOWNLOAD TODAY !
strongly advises you to use NordVPN while downloading torrents.
NordVPN is the safest VPN on the market, and the fastest VPN as well.
No IP Log is saved using NordVPN, avoid other VPN providers and choose the safest one.
Click here and buy NordVPN it's on rebates today!
We were able to verify your IP: 79.110.19.120, country: Ukraine.
If we can do that, others can too, protect your privacy with NordVPN.
is trying the best for you!
! NEW VPN OFFER - GET READY TO DOWNLOAD TODAY !

All Comments

*comments box temporarily disabled*
Report a bug