Русское порно | Michael Cunningham | Nutrición, Salud, Belleza y Fitness

Hotel Artemis 2018 720p HDCAM X264 [MW]

seeders: 30
leechers: 11
updated:
Added by moviezworldz in Other


[ LIMITED VPN OFFER ]
strongly advises you to use NordVPN while downloading torrents.
NordVPN is the safest VPN on the market, and the fastest VPN as well.
No IP Log is saved using NordVPN, avoid other VPN providers and choose the safest one.
Click here and buy NordVPN it's on rebates today!
We were able to verify your IP: 91.200.81.117, country: Ukraine.
If we can do that, others can too, protect your privacy with NordVPN.
is trying the best for you!
[ LIMITED VPN OFFER ]


Hotel Artemis 2018 720p HDCAM X264 [MW] Size: 1.007.4 MB (1055916 Bytes)

Description

 
 

 
General
Format : Matroska
Format version : Version 4 / Version 2
File size : 1 007 MiB
Duration : 1 h 26 min
Overall bit rate : 1 630 kb/s

Video
ID : 1
Format : AVC
Format/Info : Advanced Video Codec
Format profile : [email protected] 
Format settings : CABAC / 4 Ref Frames
Format settings, CABAC : Yes
Format settings, RefFrames : 4 frames
Codec ID : V_MPEG4/ISO/AVC
Duration : 1 h 26 min
Bit rate : 1 500 kb/s
Width  : 1 248 pixels
Height : 512 pixels
Display aspect ratio : 2.40:1
Frame rate mode : Constant
Frame rate : 29.970 (30000/1001) FPS
Color space : YUV
Chroma subsampling : 4:2:0
Bit depth : 8 bits
Scan type : Progressive
Bits/(Pixel*Frame) : 0.078
Stream size : 927 MiB (92%)
Writing library : x264 core 155 r2901 7d0ff22
Default : Yes
Forced : No

Audio
ID : 2
Format : AAC
Format/Info : Advanced Audio Codec
Format profile : LC
Codec ID : A_AAC-2
Duration : 1 h 26 min
Bit rate : 128 kb/s
Channel(s) : 2 channels
Channel positions : Front: L R
Sampling rate : 48.0 kHz
Frame rate : 46.875 FPS (1024 SPF)
Compression mode : Lossy
Stream size : 79.4 MiB (8%)
Default : Yes
Forced : No
  

Click To Enlarge Image

 
 
 
 
 
 
 

Sharing Widget


Download torrent
Size: 1.007.4 MB
seeders:30
leechers:11
Hotel Artemis 2018 720p HDCAM X264 [MW] - (1055916 Bytes)



To share this torrent use the code below and insert it into comments, status messages, forum posts or your signature.

Torrent: Hotel Artemis 2018 720p HDCAM X264 [MW]

Trackers

tracker name
udp://tracker.coppersurfer.tk:6969/announce
udp://tracker.pirateparty.gr:6969/announce
udp://tracker.coppersurfer.tk:6969/announce
udp://tracker.leechers-paradise.org:6969/announce
udp://eddie4.nl:6969/announce
udp://tracker.tiny-vps.com:6969/announce
udp://9.rarbg.me:2800/announce
udp://9.rarbg.to:2720/announce
udp://public.popcorn-tracker.org:6969/announce
udp://open.stealth.si:80/announce
udp://tracker.vanitycore.co:6969/announce
udp://tracker.opentrackr.org:1337/announce
udp://bt.firebit.co.uk:6969/announce
udp://shadowshq.yi.org:6969/announce
udp://tracker.zer0day.to:1337/announce
udp://tracker.leechers-paradise.org:6969/announce
udp://coppersurfer.tk:6969/announce
µTorrent compatible trackers list

Locations

name
KickassTorrents
Torrent hash: A50268736B79FA50905B4E8E455A42288C69B088

[ LIMITED VPN OFFER ]
strongly advises you to use NordVPN while downloading torrents.
NordVPN is the safest VPN on the market, and the fastest VPN as well.
No IP Log is saved using NordVPN, avoid other VPN providers and choose the safest one.
Click here and buy NordVPN it's on rebates today!
We were able to verify your IP: 91.200.81.117 and country: Ukraine.
If we can do that, others can too, protect your privacy with NordVPN.
is trying the best for you!
[ LIMITED VPN OFFER ]

All Comments

*comments box temporarily disabled*
Report a bug