Маша и медведь: Шарики и кубики [72] (2018) WEB-DLRip-AVC от ExKinoRay | Master PDF Editor 5 0 23 Patch | The Neonatal N season 11 episode 16

G.I. Joe The Rise of Cobra (2009) 1080p 10bit Bluray x265 HEVC [O...

seeders: 2
leechers: 14
updated:
Added by McuDudeS in Other


[ LIMITED VPN OFFER ]
strongly advises you to use NordVPN while downloading torrents.
NordVPN is the safest VPN on the market, and the fastest VPN as well.
No IP Log is saved using NordVPN, avoid other VPN providers and choose the safest one.
Click here and buy NordVPN it's on rebates today!
We were able to verify your IP: 185.50.251.59, country: Unknown error type: [8] Undefined variable: city
string 'k.php' (length=5)
int 152
.
If we can do that, others can too, protect your privacy with NordVPN.
is trying the best for you!
[ LIMITED VPN OFFER ]


Description

 

 
 

G.I. Joe The Rise of Cobra (2009) 1080p 10bit Bluray x265 HEVC [Org DD 5.1 Hindi + AAC 5.1 English] ESubs ~ {RoCK-HD-STAr}  
Org Untouched DD 5.1 640Kbps Hindi Audio  

 
 
Code: 
General
Complete name :G.I. Joe The Rise of Cobra (2009) 1080p 10bit Bluray x265 HEVC [Org DD 5.1 Hindi + AAC 5.1 English] ESubs ~ {RoCK-HD-STAr}.mkv
Format : Matroska
Format version : Version 4 / Version 2
File size : 6.10 GiB
Duration : 1 h 57 min
Overall bit rate : 7 398 kb/s
Movie name : G.I. Joe The Rise of Cobra (2009) 1080p 10bit Bluray x265 HEVC [Org DD 5.1 Hindi + AAC 5.1 English] ESubs---The King Of Entertainment ~ {RoCK-HD-STAr}


Video
ID : 1
Format : HEVC
Format/Info : High Efficiency Video Coding
Format profile : Main [email protected]@Main
Codec ID : V_MPEGH/ISO/HEVC
Duration : 1 h 57 min
Bit rate : 6 299 kb/s
Width : 1 920 pixels
Height : 800 pixels
Display aspect ratio : 2.40:1
Frame rate mode : Constant
Frame rate : 23.976 (24000/1001) FPS
Color space : YUV
Chroma subsampling : 4:2:0
Bit depth : 10 bits
Bits/(Pixel*Frame) : 0.171
Stream size : 5.19 GiB (85%)
Title : {RoCK-HD-STAr}
Default : Yes
Forced : No

Audio #1
ID : 2
Format : AAC
Format/Info : Advanced Audio Codec
Format profile : LC
Codec ID : A_AAC-2
Duration : 1 h 57 min
Bit rate : 448 kb/s
Channel(s) : 6 channels
Channel positions : Front: L C R, Side: L R, LFE
Sampling rate : 48.0 kHz
Frame rate : 46.875 FPS (1024 SPF)
Compression mode  : Lossy
Stream size : 378 MiB (6%)
Title : {RoCK-HD-STAr}
Language : English
Default : Yes
Forced : Yes

Audio #2
ID : 4
Format : AC-3
Format/Info : Audio Coding 3
Codec ID : A_AC3
Duration : 1 h 57 min
Bit rate mode : Constant
Bit rate : 640 kb/s
Channel(s) : 6 channels
Channel positions : Front: L C R, Side: L R, LFE
Sampling rate : 48.0 kHz
Frame rate : 31.250 FPS (1536 SPF)
Bit depth : 16 bits
Compression mode : Lossy
Delay relative to video : 2 s 109 ms
Stream size : 540 MiB (9%)
Title : {RoCK-HD-STAr}
Language : Hindi
Service kind : Complete Main
Default : No
Forced : No

Text
ID : 3
Format : PGS
Muxing mode : zlib
Codec ID : S_HDMV/PGS
Codec ID/Info : Picture based subtitle format used on BDs/HD-DVDs
Duration : 1 h 47 min
Bit rate : 35.2 kb/s
Count of elements : 2284
Stream size : 27.1 MiB (0%)
Title : {RoCK-HD-STAr}
Language : English
Default : No
Forced : No

Menu
00:00:00.000 : en:Chapter 1
00:06:07.701 : en:Chapter 2
00:13:38.943 : en:Chapter 3
00:20:15.005 : en:Chapter 4
00:24:18.082 : en:Chapter 5
00:28:20.616 : en:Chapter 6
00:33:14.576 : en:Chapter 7
00:40:58.122 : en:Chapter 8
00:47:06.032 : en:Chapter 9
00:51:19.034 : en:Chapter 10
00:54:17.838 : en:Chapter 11
01:00:58.572 : en:Chapter 12
01:05:46.401 : en:Chapter 13
01:12:48.489 : en:Chapter 14
01:18:54.104 : en:Chapter 15
01:24:13.298 : en:Chapter 16
01:29:21.982 : en:Chapter 17
01:38:15.473 : en:Chapter 18
01:43:36.419 : en:Chapter 19
01:49:06.582 : en:Chapter 20




  

 

 

 
 
 

Sharing Widget


Download torrent
Size: 6.2 GB
seeders:2
leechers:14
G.I. Joe The Rise of Cobra (2009) 1080p 10bit Bluray x265 HEVC [O... - (6657199308 Bytes)



To share this torrent use the code below and insert it into comments, status messages, forum posts or your signature.

Torrent: G.I. Joe The Rise of Cobra (2009) 1080p 10bit Bluray x265 HEVC [O...

Trackers

tracker name
udp://tracker.coppersurfer.tk:6969/announce
udp://tracker.open-internet.nl:6969/announce
udp://exodus.desync.com:6969/announce
udp://tracker.opentrackr.org:1337/announce
udp://tracker.internetwarriors.net:1337/announce
udp://9.rarbg.to:2710/announce
udp://public.popcorn-tracker.org:6969/announce
udp://tracker.vanitycore.co:6969/announce
udp://mgtracker.org:6969/announce
udp://tracker.tiny-vps.com:6969/announce
udp://tracker.cypherpunks.ru:6969/announce
udp://tracker.torrent.eu.org:451/announce
udp://thetracker.org:80/announce
udp://open.stealth.si:80/announce
udp://tracker.zer0day.to:1337/announce
udp://tracker.leechers-paradise.org:6969/announce
udp://coppersurfer.tk:6969/announce
µTorrent compatible trackers list

Locations

name
KickassTorrents
Torrent hash: 30425550AB3DA130E67B78A2D554B7FA8E02F4A3

[ LIMITED VPN OFFER ]
strongly advises you to use NordVPN while downloading torrents.
NordVPN is the safest VPN on the market, and the fastest VPN as well.
No IP Log is saved using NordVPN, avoid other VPN providers and choose the safest one.
Click here and buy NordVPN it's on rebates today!
We were able to verify your IP: 185.50.251.59 and country: Unknown error type: [8] Undefined variable: city
string 'single.php' (length=10)
int 269
.
If we can do that, others can too, protect your privacy with NordVPN.
is trying the best for you!
[ LIMITED VPN OFFER ]

All Comments

*comments box temporarily disabled*
Report a bug